#TITLE:Kokoro no Ken;
#SUBTITLE:- Mai-HiME;
#ARTIST:Shimizu Ai;
#TITLETRANSLIT:;
#SUBTITLETRANSLIT:;
#ARTISTTRANSLIT:;
#CREDIT:Yume Dan 2nd Mix;
#BANNER:Kokoro no Ken.png;
#BACKGROUND:Kokoro no Ken-bg.png;
#LYRICSPATH:Kokoro no Ken.lrc;
#CDTITLE:CDTitle.png;
#MUSIC:Kokoro no Ken.ogg;
#OFFSET:1.400;
#SAMPLESTART:62.549;
#SAMPLELENGTH:11.600;
#SELECTABLE:YES;
#BPMS:0.000=123.010,128.000=122.995,132.000=61.495,140.000=122.995;
#STOPS:184.500=0.488
;
#BGCHANGES:;
// cache tags:
#FIRSTBEAT:16.000;
#LASTBEAT:209.000;
#SONGFILENAME:songs/Otaku's Dream 3rd Anime Mix/[Kreton] Kokoro no Ken - Mai-HiME/Kokoro no Ken.sm;
#HASMUSIC:1;
#HASBANNER:1;
#MUSICLENGTH:111.108;
// end cache tags

//---------------dance-single - Kreton----------------
#NOTES:
     dance-single:
     Kreton:
     Hard:
     7:
     0.431,0.517,0.117,0.432,0.122,274.000,13.000,48.000,0.000,0.000:
0000
0000
0000
0000
,
0000
0000
0000
0000
,
0000
0000
0000
0000
,
0000
0000
0000
0000
,
0010
0010
0010
0010
0010
1000
0100
0010
,
0002
0000
0103
0002
0000
0103
0010
1000
,
0002
0000
1003
0020
0000
1030
0001
1000
,
0100
1000
0100
1000
0010
1000
0000
1000
,
0010
0100
0010
2000
0000
3020
0000
0030
,
2000
0000
3010
0200
0000
0300
0000
0100
,
0010
0100
0010
1000
0010
0100
0010
1000
,
0010
0100
0001
0020
0000
0000
0030
0001
,
1000
0000
0110
0000
0000
1000
0001
0010
,
0100
1000
0001
2000
0000
3010
0100
0001
,
1000
0010
0100
0002
0000
0003
0000
1000
,
0100
0010
0001
1000
0001
1000
0000
1000
,
0100
1000
0100
2000
0000
3020
0000
0030
,
2000
0000
3010
0200
0000
0300
0000
0001
,
0010
0001
0100
0001
0100
0001
0010
0001
,
2000
0000
3000
0010
0200
0000
0000
0000
,
0310
0000
0000
0000
1000
0000
0000
0000
0001
0010
0001
0010
0001
0000
1000
0000
,
0200
0000
0300
1000
0000
0001
0010
0100
,
2000
0000
3010
0200
0000
0301
1000
0010
,
0200
0000
0300
0002
0000
1003
0010
0100
,
0011
1001
0110
1100
,
0020
0000
0030
2000
0000
3010
0100
0001
,
2000
0000
3000
0020
0000
1030
0010
0100
,
0010
0000
0000
2000
0000
3010
0100
0001
,
2000
0000
0000
0000
0000
0000
3010
0100
0010
0000
0000
0000
1000
0000
0000
0000
,
0020
1000
0000
2030
,
3002
0000
0203
0320
,
0130
0001
1000
0010
0100
0001
1000
0000
,
0010
0100
0001
1000
0010
0000
0000
0000
,
1001
0000
0000
0000
0000
0000
0000
1001
0110
0000
0000
0000
0000
0000
0000
0000
,
1001
0000
0000
0000
0000
0000
0000
0000
0000
0000
0000
0000
0000
0000
0110
0000
1001
0000
0000
0000
0000
0000
0000
0000
0000
0000
0000
0000
0000
0000
0001
1000
,
0001
0100
0010
2000
0000
3020
0000
0030
,
1000
0100
0010
0002
0000
0023
0000
0030
,
0000
0001
0100
0010
1000
0010
0100
0010
,
1000
0001
0100
0010
2000
0000
3000
0001
,
0200
0000
0000
0000
0301
0000
0000
1000
0010
0000
1000
0000
0001
0000
0100
0000
,
0010
0000
0100
0000
0001
0000
0000
1000
0020
0000
0000
0000
0030
0000
0000
0000
,
2000
0000
0000
0000
3010
0000
0000
1000
0001
0000
0100
0000
0010
0000
1000
0000
,
0002
0000
0000
0000
0000
0000
2003
0000
0000
0000
0000
0000
3000
0000
0001
0010
,
0001
0000
0100
0000
0010
0000
1000
0000
0010
0000
0200
0000
0000
0000
0000
0300
,
0001
1000
0010
0200
0000
0302
0000
0000
,
0003
1000
0010
0100
0001
1000
0010
0100
,
0001
0000
0000
0000
1000
0000
0000
0000
0000
0000
0000
0000
0001
1000
0000
1000
,
0001
0000
0100
0010
0000
0010
0100
0000
0001
0000
0010
0000
0001
1000
0000
1000
,
0001
0000
0001
0010
0000
0010
0001
0000
1000
0000
0100
0000
0010
0100
0000
0100
,
0010
0000
1000
0001
0000
1000
0001
0000
0100
0000
0010
0000
1000
0010
0100
0001
,
1000
0010
0100
0001
1000
0000
0000
0000
0000
0000
0000
0000
0110
0000
0000
0000
,
0000
2002
0000
0000
,
0000
3003
0000
0000
;

//---------------dance-single - Kreton----------------
#NOTES:
     dance-single:
     Kreton:
     Beginner:
     1:
     0.067,0.118,0.018,0.009,0.000,49.000,2.000,1.000,0.000,0.000:
0000
0000
0000
0000
,
0000
0000
0000
0000
,
0000
0000
0000
0000
,
0000
0000
0000
0000
,
0000
0000
0000
0000
,
0001
0000
0000
0000
,
0100
0000
0000
0000
,
0010
0000
0000
0000
,
1000
0000
0000
0000
,
0001
0000
0000
0000
,
0100
0000
0000
0000
,
0010
0000
0000
0000
,
1000
0000
0000
0000
,
0010
0000
0000
0000
,
0100
0000
0000
0000
,
0001
0000
0000
0000
,
1000
0000
0000
0000
,
0010
0000
0000
0000
,
0100
0000
0000
0000
,
0001
0000
0000
0000
,
1000
0000
0000
0000
,
0010
0000
0000
0000
,
0100
0000
0000
0000
,
0010
0000
0000
0000
,
0100
0000
0000
0000
,
0001
0000
0000
0000
,
1000
0000
0000
0000
,
0010
0000
0000
0000
,
0100
0000
0000
0000
,
0001
0000
0000
0000
,
1000
0000
0000
0000
,
0010
0000
0000
0000
,
0100
0000
0000
0000
,
1001
0000
0000
0000
,
1001
0000
0000
0000
,
0100
0000
0000
0000
,
0010
0000
0000
0000
,
1000
0000
0000
0000
,
0001
0000
0000
0000
,
0100
0000
0000
0000
,
0010
0000
0000
0000
,
1000
0000
0000
0000
,
0010
0000
0000
0000
,
0100
0000
0000
0000
,
0010
0000
0000
0000
,
1000
0000
0000
0000
,
0001
1000
0000
0010
,
0000
0000
0000
0100
,
0000
0000
0000
0010
,
0000
0000
0000
1000
,
0000
0000
0000
0001
,
0000
0200
0000
0000
,
0000
0300
0000
0000
;

//---------------dance-single - Kreton----------------
#NOTES:
     dance-single:
     Kreton:
     Medium:
     5:
     0.244,0.306,0.090,0.045,0.000,175.000,10.000,5.000,0.000,0.000:
0000
0000
0000
0000
,
0000
0000
0000
0000
,
0000
0000
0000
0000
,
0000
0000
0000
0000
,
0001
1000
0001
1000
0010
0000
0100
0000
,
0010
0000
1000
0010
0000
0000
0100
0000
,
0010
0000
1000
0001
0000
0000
0000
0000
,
1000
0001
0100
0010
,
0100
0000
0001
0010
0000
0010
0001
0000
,
1000
0000
0010
1000
0000
0000
0000
0000
,
0010
1000
0010
0100
,
0001
0000
1000
0001
0000
0000
0000
1000
,
0001
0100
0000
0010
,
1000
0000
0001
1000
0000
0000
0010
0000
,
1000
0000
0001
0100
0000
0000
0000
0000
,
0001
1000
0010
1000
,
1000
0000
0010
0100
0000
0010
0100
0000
,
0001
0000
0100
0010
0000
0000
0000
0000
,
1000
0100
0010
0001
,
0010
0000
0000
0100
0010
0000
0000
0000
,
1001
0110
1001
0000
,
0100
0010
1000
0001
,
0010
0001
1000
0010
,
0100
0001
1000
0010
,
0100
0001
1000
0010
,
0100
0001
1000
0010
,
0100
0001
1000
0010
,
0100
0010
0100
0010
,
1000
0000
0000
0001
0010
0000
0000
0000
,
0002
0000
0000
0000
,
2003
0000
0000
0000
,
3020
0000
0000
0000
,
0130
0100
0100
0000
,
1001
0000
1001
0000
,
0110
0000
1001
0000
,
1000
0010
0100
0010
,
1000
0010
0100
0001
,
1000
0010
0100
0001
,
0100
0010
0100
0010
0100
0000
0000
0000
,
1001
0010
0100
0001
,
1000
0010
0100
0000
,
0010
1000
0010
0100
,
0001
0000
0000
0100
0000
0000
0000
0000
,
0010
0010
0010
0000
1000
0000
0010
0000
,
0100
0001
1000
0010
,
0000
0010
1000
0010
,
1000
0000
0010
0000
0000
0000
1000
0001
,
1000
0001
1000
0000
0010
0000
0100
0010
,
0100
0010
0100
0000
0001
0000
1000
0100
,
1000
0100
1000
0000
0010
0000
0100
0001
,
0100
0010
0100
0000
0000
0000
0110
0000
,
0000
2002
0000
0000
,
0000
3003
0000
0000
;

//---------------dance-single - Kreton----------------
#NOTES:
     dance-single:
     Kreton:
     Easy:
     3:
     0.174,0.212,0.009,0.018,0.000,132.000,1.000,2.000,0.000,0.000:
0000
0000
0000
0000
,
0000
0000
0000
0000
,
0000
0000
0000
0000
,
0000
0000
0000
0000
,
1000
0100
1000
0000
,
0010
0100
0010
0000
,
1000
0100
1000
0000
,
0001
0010
0001
0000
,
0100
0010
0100
0000
,
0010
1000
0010
0000
,
0010
0100
0010
0000
,
1000
0001
1000
0000
,
0010
0100
0000
0000
,
0010
0100
0010
0000
,
1000
0010
0100
0000
,
0001
1000
0010
0000
,
0100
0010
1000
0000
,
0001
0100
0010
0000
,
1000
0010
0100
0000
,
0010
0100
0001
0000
,
0100
0000
0000
0000
,
0010
0100
0001
0000
,
1000
0010
0100
0000
,
0001
0010
0001
0000
,
1000
0100
1000
0010
,
1000
0100
1000
0000
,
0001
0010
0001
0000
,
0100
0010
0100
0000
,
0010
0100
0010
0000
,
1000
0000
0000
0001
,
0000
0000
0100
0000
,
0010
0000
0000
0000
,
0100
0000
0000
0000
,
0010
0000
1000
0000
,
0001
0000
1000
0000
,
1000
0010
0100
0000
,
0001
1000
0001
0000
,
0100
0010
0100
0000
,
0001
0010
0100
0000
,
1000
0100
0010
0000
,
0100
1000
0100
0000
,
1000
0001
1000
0000
,
0010
0000
0100
0000
,
0001
0100
0010
0000
,
1000
0100
1000
0000
,
0010
0000
0100
0000
,
0001
1000
0000
0001
,
0001
0001
0001
1000
,
1000
1000
1000
0010
,
0010
0010
0010
0100
,
0100
0100
0000
0010
,
0000
2002
0000
0000
,
0000
3003
0000
0000
;
